Weathering with You (2019) [ZECHS] [Dual Audio] [HEVC] [BD 1080p] [DTS]

Category:
Date:
2020-09-16 06:26 UTC
Submitter:
Seeders:
9
Information:
No information.
Leechers:
0
File size:
12.8 GiB
Completed:
191
Info hash:
6176361c6a5b742f7d588658a683ad33196b329b
[ZECHS ARCHIVES](https://groups.google.com/forum/#!forum/zechs-archives-01) for all other releases. General Unique ID : 196542347781897466124165742583149355387 (0x93DCADE62AF8256A92B9F1964D75E17B) Complete name : [ZECHS] Weathering with You (2019) [Dual Audio] [HEVC] [BD 1080p] [DTS].mkv Format : Matroska Format version : Version 4 / Version 2 File size : 12.8 GiB Duration : 1 h 52 min Overall bit rate : 16.3 Mb/s Encoded date : UTC 2020-09-16 05:50:58 Writing application : mkvmerge v50.0.0 ('Awakenings') 64-bit Writing library : libebml v1.4.0 + libmatroska v1.6.2 Video ID : 1 Format : HEVC Format/Info : High Efficiency Video Coding Format profile : Main [email protected]@Main Codec ID : V_MPEGH/ISO/HEVC Duration : 1 h 52 min Bit rate : 9 109 kb/s Width : 1 920 pixels Height : 1 080 pixels Display aspect ratio : 16:9 Frame rate mode : Constant Frame rate : 23.976 (24000/1001) FPS Color space : YUV Chroma subsampling : 4:2:0 Bit depth : 10 bits Bits/(Pixel*Frame) : 0.183 Stream size : 7.14 GiB (56%) Writing library : x265 3.3+14-4015cc7a1952:[DJATOM's Mod][Windows][GCC 9.2.1][64 bit] 10bit Encoding settings : cpuid=1049583 / frame-threads=16 / numa-pools=24,24 / wpp / pmode / pme / no-psnr / no-ssim / log-level=2 / csv / csv-log-level=2 / input-csp=1 / input-res=1920x1080 / interlace=0 / total-frames=161448 / level-idc=0 / high-tier=1 / uhd-bd=0 / ref=4 / no-allow-non-conformance / no-repeat-headers / annexb / no-aud / no-hrd / info / hash=0 / no-temporal-layers / open-gop / min-keyint=23 / keyint=240 / gop-lookahead=0 / bframes=8 / b-adapt=2 / b-pyramid / bframe-bias=0 / rc-lookahead=20 / lookahead-slices=6 / scenecut=40 / hist-scenecut=0 / radl=0 / no-splice / no-intra-refresh / ctu=64 / min-cu-size=8 / no-rect / no-amp / max-tu-size=32 / tu-inter-depth=4 / tu-intra-depth=4 / limit-tu=0 / rdoq-level=2 / dynamic-rd=0.00 / no-ssim-rd / signhide / no-tskip / nr-intra=0 / nr-inter=0 / no-constrained-intra / no-strong-intra-smoothing / max-merge=5 / limit-refs=1 / no-limit-modes / me=3 / subme=5 / merange=48 / temporal-mvp / no-frame-dup / no-hme / weightp / weightb / analyze-src-pics / deblock=1:-1 / no-sao / no-sao-non-deblock / rd=5 / selective-sao=0 / no-early-skip / no-rskip / no-fast-intra / no-tskip-fast / no-cu-lossless / b-intra / no-splitrd-skip / rdpenalty=0 / psy-rd=2.50 / psy-rdoq=4.00 / rd-refine / no-lossless / cbqpoffs=-2 / crqpoffs=-2 / rc=crf / crf=15.0 / qcomp=0.72 / qpstep=4 / stats-write=0 / stats-read=0 / ipratio=1.40 / pbratio=1.30 / aq-mode=4 / aq-strength=0.85 / no-cutree / zone-count=0 / no-strict-cbr / qg-size=32 / no-rc-grain / qpmax=69 / qpmin=0 / no-const-vbv / sar=1 / overscan=0 / videoformat=5 / range=0 / colorprim=1 / transfer=1 / colormatrix=1 / chromaloc=0 / display-window=0 / cll=0,0 / min-luma=0 / max-luma=1023 / log2-max-poc-lsb=8 / vui-timing-info / vui-hrd-info / slices=1 / no-opt-qp-pps / no-opt-ref-list-length-pps / no-multi-pass-opt-rps / scenecut-bias=0.05 / hist-threshold=0.01 / no-opt-cu-delta-qp / no-aq-motion / no-hdr10 / no-hdr10-opt / no-dhdr10-opt / no-idr-recovery-sei / analysis-reuse-level=0 / analysis-save-reuse-level=0 / analysis-load-reuse-level=0 / scale-factor=0 / refine-intra=0 / refine-inter=0 / refine-mv=1 / refine-ctu-distortion=0 / no-limit-sao / ctu-info=0 / no-lowpass-dct / refine-analysis-type=0 / copy-pic=1 / max-ausize-factor=1.0 / no-dynamic-refine / no-single-sei / hevc-aq / no-svt / no-field / qp-adaptation-range=2.00 / no-scenecut-aware-qpconformance-window-offsets / right=0 / bottom=0 Default : Yes Forced : No Color range : Limited Color primaries : BT.709 Transfer characteristics : BT.709 Matrix coefficients : BT.709 Audio #1 ID : 2 Format : DTS Format/Info : Digital Theater Systems Format profile : MA / Core Codec ID : A_DTS Duration : 1 h 52 min Bit rate mode : Variable / Constant Bit rate : 3 594 kb/s / 1 509 kb/s Channel(s) : 6 channels Channel positions : Front: L C R, Side: L R, LFE Sampling rate : 48.0 kHz Frame rate : 93.750 FPS (512 SPF) Bit depth : 24 bits Compression mode : Lossless / Lossy Delay relative to video : 10 ms Stream size : 2.82 GiB (22%) Language : English Default : Yes Forced : No Audio #2 ID : 3 Format : DTS Format/Info : Digital Theater Systems Format profile : MA / Core Codec ID : A_DTS Duration : 1 h 52 min Bit rate mode : Variable / Constant Bit rate : 3 557 kb/s / 1 509 kb/s Channel(s) : 6 channels Channel positions : Front: L C R, Side: L R, LFE Sampling rate : 48.0 kHz Frame rate : 93.750 FPS (512 SPF) Bit depth : 24 bits Compression mode : Lossless / Lossy Stream size : 2.79 GiB (22%) Language : Japanese Default : No Forced : No Text #1 ID : 4 Format : PGS Muxing mode : zlib Codec ID : S_HDMV/PGS Codec ID/Info : Picture based subtitle format used on BDs/HD-DVDs Duration : 1 h 42 min Bit rate : 3 721 b/s Count of elements : 354 Stream size : 2.74 MiB (0%) Title : Signs & Songs Language : English Default : Yes Forced : No Text #2 ID : 5 Format : PGS Muxing mode : zlib Codec ID : S_HDMV/PGS Codec ID/Info : Picture based subtitle format used on BDs/HD-DVDs Duration : 1 h 51 min Bit rate : 32.4 kb/s Count of elements : 3117 Stream size : 25.7 MiB (0%) Title : Full Subtitles Language : English Default : No Forced : No Menu 00:00:00.000 : ja:Chapter 01 00:03:52.315 : ja:Chapter 02 00:07:13.433 : ja:Chapter 03 00:11:51.210 : ja:Chapter 04 00:17:27.046 : ja:Chapter 05 00:19:46.351 : ja:Chapter 06 00:22:25.260 : ja:Chapter 07 00:26:08.066 : ja:Chapter 08 00:30:07.972 : ja:Chapter 09 00:34:27.982 : ja:Chapter 10 00:38:29.807 : ja:Chapter 11 00:41:36.243 : ja:Chapter 12 00:44:05.893 : ja:Chapter 13 00:47:58.876 : ja:Chapter 14 00:52:11.461 : ja:Chapter 15 00:55:55.852 : ja:Chapter 16 00:58:46.773 : ja:Chapter 17 01:01:42.532 : ja:Chapter 18 01:05:18.247 : ja:Chapter 19 01:08:55.923 : ja:Chapter 20 01:13:52.928 : ja:Chapter 21 01:16:58.697 : ja:Chapter 22 01:19:57.709 : ja:Chapter 23 01:23:15.949 : ja:Chapter 24 01:25:48.226 : ja:Chapter 25 01:28:51.117 : ja:Chapter 26 01:33:02.868 : ja:Chapter 27 01:38:33.115 : ja:Chapter 28 01:43:29.328 : ja:Chapter 29 01:47:40.829 : ja:Chapter 30 01:52:12.726 : ja:Chapter 31

File list

Video source is USBD or JPBD?

zechs (uploader)

User
Video: Beatrice Everything else: USBD
###### Thanks!
Thanks! @zechs Will you have the spanish subtitles PGS from USBD?

zechs (uploader)

User
@@JuliusXX [All Subtitles from USBD](https://drive.google.com/file/d/1bBNrrLTS282G4IxsogS5KCbgNSJiigqq/view?usp=sharing) use MKVToolNix.
@zechs my gratefull. By any chance, you will have the Spanish Subtitles PGS from USBD of "Children of the Sea"?