[UDF] Kamisama no Memochou (Heaven's Memo Pad) (BDRip 1080p x264 FLACx2) [dual-audio] [v3]

Category:
Date:
2020-09-27 15:37 UTC
Submitter:
Seeders:
1
Information:
No information.
Leechers:
1
File size:
20.0 GiB
Completed:
104
Info hash:
ade7663672a7eade71db95eeffc2c5955d64043c
# Heaven's Memo Pad The first episode is 48 minutes long, the rest of the episodes 24 minutes. Hence the bigger file size. Enjoy! ### Sources Special thanks to Yukino for helping with the comparison of Yousei vs sergey_krs. This version (compared to previous versions) has better chapters, mkv metadata and subtitles. video: sergey_krs subtitles: Chihiro (edited) I used Relight's edit of Chihiro's subs, since he already added a OP/ED and retimed it to fit with an encode that does have an OP and ED. I further improved on Relight's edit by adding the OP/ED subs he made to episode 4 (where he forgot to add them) and I fixed an issue in episode 10, at 13:05 the subtitles of the mail on screen were placed incorrectly, making them almost unreadable. I replaced it with Chihiro's original, which fixed this issue. Audio, subtitles & chapters are now correctly timed to the video. ### UTW subtitles Unlike the previous versions, this version does not have the UTW subtitles. They're inferior in translation, however their Signs & Songs look much better. The problem with UTW's release is that they sync very poorly to sergey_krs' release. I could fix this but I simply do not have the time for that. If anyone is up for the challenge you can get UTW's subtitles here: https://cutt.ly/Qf1zBOY I would recommend to just ignore the Signs & Songs track that I made, sync the full subtitles and then remake a Signs & Songs track. That would take less time than syncing both. ### Ddl I'm moving on to the next project so won't have diskspace for this anymore. If anyone can keep this seeded that'd be amazing. But if not, here's a ddl. aHR0cHM6Ly9jdXR0Lmx5L3lmMWtVRDM= ### MediaInfo General Unique ID : 79383534932155492084154449776654637065 (0x3BB8B6739E9D0CD7CE4924A04C735809) Complete name : F:\BitTorrent\Selfmade\[UDF] Kamisama no Memochou (Heaven's Memo Pad) (BDRip 1080p x264 FLACx2) [dual-audio] [v3]\[UDF] Kamisama no Memochou (Heaven's Memo Pad) - 01 (BDRip 1080p x264 FLACx2) [dual-audio] [v3] [5D97F285].mkv Format : Matroska Format version : Version 4 File size : 3.27 GiB Duration : 47 min 41 s Overall bit rate mode : Variable Overall bit rate : 9 804 kb/s Movie name : Heaven's Memo Pad - 01 - Two or Three Things I Know About Her Encoded date : UTC 2020-09-25 15:16:21 Writing application : mkvmerge v34.0.0 ('Sight and Seen') 64-bit Writing library : libebml v1.3.7 + libmatroska v1.5.0 Attachments : DFPCRD3_1.ttf / ARIAL.TTF / ARIALBD.TTF / ARIALI.TTF / ARLRDBD.TTF / ARMEDBANANA.TTF / CALIBRI.TTF / DFPCRD3_1.ttf / Eden Bold.ttf / MICROSS.TTF / SEGOESC.TTF / TIMES.TTF / VERDANA.TTF / VERDANAB.TTF / BALZANO.TTF / DFGCrd3-Kami.ttf / Familiar Pro-Bold.otf / FOT-AnitoStd-M-En.otf / HeiseiKakuGoStd-W5-En.otf / HeiseiKakuGoStd-W5-Kami.ttf / IwaGNewsProDb-Madoka.ttf / IwaMinPro-Md-Kami.ttf / kokila.ttf / LEHN031.TTF / Very Damaged.ttf Video ID : 1 Format : AVC Format/Info : Advanced Video Codec Format profile : High [email protected] Format settings : CABAC / 4 Ref Frames Format settings, CABAC : Yes Format settings, Reference : 4 frames Codec ID : V_MPEG4/ISO/AVC Duration : 47 min 41 s Bit rate : 7 641 kb/s Width : 1 920 pixels Height : 1 080 pixels Display aspect ratio : 16:9 Frame rate mode : Constant Frame rate : 23.976 (24000/1001) FPS Color space : YUV Chroma subsampling : 4:2:0 Bit depth : 10 bits Scan type : Progressive Bits/(Pixel*Frame) : 0.154 Stream size : 2.54 GiB (78%) Title : BDRip by sergey_krs Writing library : x264 core 144 r2525 40bb568 Encoding settings : cabac=1 / ref=4 / deblock=1:-2:-2 / analyse=0x3:0x133 / me=umh / subme=9 / psy=1 / psy_rd=0.70:0.00 / mixed_ref=1 / me_range=32 / chroma_me=1 / trellis=2 / 8x8dct=1 / cqm=0 / deadzone=21,11 / fast_pskip=1 / chroma_qp_offset=-2 / threads=12 / lookahead_threads=2 / sliced_threads=0 / nr=0 / decimate=0 / interlaced=0 / bluray_compat=0 / constrained_intra=0 / bframes=8 / b_pyramid=2 / b_adapt=2 / b_bias=0 / direct=3 / weightb=1 / open_gop=0 / weightp=2 / keyint=240 / keyint_min=25 / scenecut=40 / intra_refresh=0 / rc=crf / mbtree=0 / crf=16.0 / qcomp=0.65 / qpmin=8 / qpmax=38 / qpstep=4 / ip_ratio=1.40 / pb_ratio=1.30 / aq=1:1.00 Language : Japanese Default : Yes Forced : No Color range : Limited Color primaries : BT.709 Transfer characteristics : BT.709 Matrix coefficients : BT.709 Audio #1 ID : 2 Format : FLAC Format/Info : Free Lossless Audio Codec Codec ID : A_FLAC Duration : 47 min 41 s Bit rate mode : Variable Bit rate : 1 421 kb/s Channel(s) : 2 channels Channel layout : L R Sampling rate : 48.0 kHz Frame rate : 10.417 FPS (4608 SPF) Bit depth : 24 bits Compression mode : Lossless Stream size : 485 MiB (14%) Title : English 2.0 FLAC Writing library : Lavf58.30.100 Language : English Default : Yes Forced : No Audio #2 ID : 3 Format : FLAC Format/Info : Free Lossless Audio Codec Codec ID : A_FLAC Duration : 47 min 41 s Bit rate mode : Variable Bit rate : 672 kb/s Channel(s) : 2 channels Channel layout : L R Sampling rate : 48.0 kHz Frame rate : 11.719 FPS (4096 SPF) Bit depth : 16 bits Compression mode : Lossless Stream size : 229 MiB (7%) Title : Japanese 2.0 FLAC Writing library : libFLAC 1.2.1 (UTC 2007-09-17) Language : Japanese Default : No Forced : No Text #1 ID : 4 Format : ASS Codec ID : S_TEXT/ASS Codec ID/Info : Advanced Sub Station Alpha Duration : 47 min 21 s Bit rate : 18 b/s Count of elements : 86 Compression mode : Lossless Stream size : 6.52 KiB (0%) Title : Signs & Songs (Chihiro) Language : English Default : Yes Forced : No Text #2 ID : 5 Format : ASS Codec ID : S_TEXT/ASS Codec ID/Info : Advanced Sub Station Alpha Duration : 47 min 36 s Bit rate : 156 b/s Count of elements : 850 Compression mode : Lossless Stream size : 54.5 KiB (0%) Title : Full Subtitles (Chihiro) Language : English Default : No Forced : No Menu 00:00:00.000 : :Prologue 00:00:51.051 : :Opening 00:02:21.015 : :Episode - Part A 00:09:51.048 : :Episode - Part B 00:23:51.012 : :Episode - Part C 00:33:17.954 : :Episode - Part D 00:45:54.918 : :Ending 00:47:24.883 : :Preview

File list

  • [UDF] Kamisama no Memochou (Heaven's Memo Pad) (BDRip 1080p x264 FLACx2) [dual-audio] [v3]
    • [UDF] Kamisama no Memochou (Heaven's Memo Pad) - 01 (BDRip 1080p x264 FLACx2) [dual-audio] [v3] [5D97F285].mkv (3.3 GiB)
    • [UDF] Kamisama no Memochou (Heaven's Memo Pad) - 02 (BDRip 1080p x264 FLACx2) [dual-audio] [v3] [94AFBF05].mkv (1.5 GiB)
    • [UDF] Kamisama no Memochou (Heaven's Memo Pad) - 03 (BDRip 1080p x264 FLACx2) [dual-audio] [v3] [3EC186CB].mkv (1.4 GiB)
    • [UDF] Kamisama no Memochou (Heaven's Memo Pad) - 04 (BDRip 1080p x264 FLACx2) [dual-audio] [v3] [884907FC].mkv (1.5 GiB)
    • [UDF] Kamisama no Memochou (Heaven's Memo Pad) - 05 (BDRip 1080p x264 FLACx2) [dual-audio] [v3] [C069CE45].mkv (1.4 GiB)
    • [UDF] Kamisama no Memochou (Heaven's Memo Pad) - 06 (BDRip 1080p x264 FLACx2) [dual-audio] [v3] [A2E2EEC7].mkv (1.5 GiB)
    • [UDF] Kamisama no Memochou (Heaven's Memo Pad) - 07 (BDRip 1080p x264 FLACx2) [dual-audio] [v3] [D7387E75].mkv (1.6 GiB)
    • [UDF] Kamisama no Memochou (Heaven's Memo Pad) - 08 (BDRip 1080p x264 FLACx2) [dual-audio] [v3] [0601089B].mkv (1.6 GiB)
    • [UDF] Kamisama no Memochou (Heaven's Memo Pad) - 09 (BDRip 1080p x264 FLACx2) [dual-audio] [v3] [8EA2D58F].mkv (1.5 GiB)
    • [UDF] Kamisama no Memochou (Heaven's Memo Pad) - 10 (BDRip 1080p x264 FLACx2) [dual-audio] [v3] [E7DEE540].mkv (1.5 GiB)
    • [UDF] Kamisama no Memochou (Heaven's Memo Pad) - 11 (BDRip 1080p x264 FLACx2) [dual-audio] [v3] [2428D81D].mkv (1.5 GiB)
    • [UDF] Kamisama no Memochou (Heaven's Memo Pad) - 12 (BDRip 1080p x264 FLACx2) [dual-audio] [v3] [240040C9].mkv (1.6 GiB)
When will be the v4 and 5?
This is the best release by far but if you insist: v4 will be if we can get our hands on the vhs or laser disc v5 will be the subs in hieroglyphics, no video, with the audio encoded to play on a motherboard speaker :)
@Yukino: Shit, this sounds for computer with a 80186 processor or earlier.